<?xml version="1.0" standalone="no"?>
<!DOCTYPE svg PUBLIC "-//W3C//DTD SVG 1.1//EN" "http://www.w3.org/Graphics/SVG/1.1/DTD/svg11.dtd">
<svg xmlns="http://www.w3.org/2000/svg">
<defs >
<font id="SourceCodePro" horiz-adv-x="600" ><font-face
    font-family="Source Code Pro ExtraLight"
    units-per-em="1000"
    panose-1="2 11 3 9 3 4 3 2 2 4"
    ascent="984"
    descent="-273"
    alphabetic="0" />
<glyph unicode=" " />
<glyph unicode="!" d="M272 232L262 576L260 670H340L338 576L328 232H272ZM300 -12Q270 -12 249 9T227 66Q227 101 248 121T300 142Q330 142 351 122T373 66Q373 30 352 9T300 -12Z" />
<glyph unicode="&quot;" d="M413 352L388 577L386 687H496L494 577L469 352H413ZM387 352L362 577L360 687H470L468 577L443 352H387Z" />
<glyph unicode="#" d="M328 0L408 650H461L382 0H328ZM142 0L222 650H275L196 0H142ZM107 409V467H519V409H107ZM87 204V261H499V204H87Z" />
<glyph unicode="$" d="M85 113L124 170Q161 143 207 123T310 102Q369 102 400 126T431 189Q431 220 408 241T349 277T273 308T196 343T137 392T114 465Q114 512 139 546T208 599T310 618Q376 618 418 596T495 541L451 493Q417 520 386 535T304 550Q253 550 224
528T194 467Q194 440 217 421T276 388T352 359T429 323T489 272T512 195Q512 147 485 111T411 54T300 34Q260 34 220 45T146 74T85 113ZM276 587V748H336V587H276ZM276 63H336V-110H276V63Z" />
<glyph unicode="%" d="M166 321Q126 321 95 340T45 398T27 487Q27 565 66 607T166 650Q227 650 266 608T305 487Q305 436 287 398T238 341T166 321ZM166 371Q199 371 221 399T244 487Q244 547 222 574T166 601Q134 601 111 574T88 487Q88 428 111 400T166 371ZM77
32L28 77L211 265L244 235L77 32ZM389 391L356 421L523 624L572 579L389 391ZM434 -12Q394 -12 363 7T313 65T295 154Q295 232 334 274T434 317Q495 317 534 275T573 154Q573 103 555 65T506 8T434 -12ZM434 38Q467 38 489 66T512 154Q512 214 490 241T434 268Q402
268 379 241T356 154Q356 95 379 67T434 38Z" />
<glyph unicode="&amp;" d="M238 -12Q180 -12 136 11T67 76T42 170Q42 217 62 253T115 318T183 372T252 421T304 474T325 537Q325 566 312 587T265 609Q231 609 212 582T192 514Q192 468 214 417T272 314T354 216T445 134Q481 105 514 86T577 56L554 -12Q518 0
478 22T396 79Q343 121 294 174T206 287T144 404T121 513Q121 556 139 591T189 647T265 668Q326 668 359 632T392 538Q392 498 373 465T323 405T257 351T191 299T141 242T122 175Q122 138 139 111T184 69T248 54Q286 54 321 75T387 131Q424 174 450 230T494 354H570Q550
281 519 214T444 91Q405 46 355 17T238 -12Z" />
<glyph unicode="&apos;" d="M272 352L247 577L245 687H355L353 577L328 352H272Z" />
<glyph unicode="(" d="M433 -176Q329 -94 269 19T208 278Q208 423 268 537T433 732L478 690Q378 606 330 505T282 278Q282 152 330 52T478 -134L433 -176Z" />
<glyph unicode=")" d="M167 -176L122 -134Q222 -49 270 51T318 278Q318 404 270 505T122 690L167 732Q272 651 332 537T392 278Q392 133 332 20T167 -176Z" />
<glyph unicode="*" d="M180 111L138 141L246 306L84 376L100 422L267 367L276 556H324L333 367L500 422L516 376L354 306L462 141L420 111L300 270L180 111Z" />
<glyph unicode="+" d="M267 104V299H85V361H267V556H333V361H515V299H333V104H267Z" />
<glyph unicode="," d="M220 -213L197 -161Q261 -133 292 -91T323 14L304 106L360 27Q348 13 334 9T304 4Q283 4 265 12T237 37T226 79Q226 116 250 135T306 155Q350 155 373 121T396 27Q396 -61 349 -121T220 -213Z" />
<glyph unicode="-" d="M85 299V361H515V299H85Z" />
<glyph unicode="." d="M300 -12Q267 -12 243 11T219 72Q219 110 243 133T300 157Q334 157 357 134T381 72Q381 35 358 12T300 -12Z" />
<glyph unicode="/" d="M99 -160L427 710H501L173 -160H99Z" />
<glyph unicode="0" d="M300 -12Q229 -12 178 27T99 141T71 321Q71 482 132 566T300 650Q407 650 468 566T529 321Q529 215 502 141T423 28T300 -12ZM300 54Q345 54 379 82T432 170T452 321Q452 413 433 471T379 556T300 584Q256 584 222 557T168 471T148 321Q148
230 167 171T221 83T300 54ZM300 261Q275 261 257 279T238 328Q238 359 256 376T300 394Q326 394 344 377T362 328Q362 297 344 279T300 261Z" />
<glyph unicode="1" d="M97 0V68H281V538H138V591Q176 596 205 603T258 618T302 638H363V68H530V0H97Z" />
<glyph unicode="2" d="M73 0V49Q181 144 255 216T369 347T408 458Q408 513 374 548T269 583Q224 583 186 561T116 506L69 553Q112 597 161 623T279 650Q343 650 389 627T461 561T487 462Q487 402 450 341T347 213T193 65Q223 68 253 69T312 71H522V0H73Z" />
<glyph unicode="3" d="M287 -12Q232 -12 189 1T114 34T57 78L99 132Q131 102 176 79T282 56Q326 56 360 70T415 111T435 173Q435 211 412 239T338 284T203 300V363Q279 363 325 379T391 421T412 482Q412 529 377 556T282 583Q237 583 197 565T125 518L81 570Q121
605 172 627T285 650Q345 650 392 631T468 576T496 488Q496 430 458 393T360 336V332Q402 323 438 302T496 247T518 170Q518 113 487 73T403 10T287 -12Z" />
<glyph unicode="4" d="M368 0V440Q369 466 370 496T373 553H368Q353 530 336 507T303 460L130 242H545V176H39V231L358 638H446V0H368Z" />
<glyph unicode="5" d="M286 -12Q229 -12 186 0T112 33T56 75L97 129Q118 110 143 94T202 67T277 56Q322 56 359 74T417 124T439 202Q439 268 396 305T282 342Q242 342 214 332T152 303L108 331L129 638H490V567H202L185 378Q212 390 239 397T303 404Q364 404 414
383T493 318T522 204Q522 135 489 87T401 13T286 -12Z" />
<glyph unicode="6" d="M321 -12Q269 -12 225 7T147 64T96 160T77 295Q77 391 99 458T158 568T244 630T344 650Q402 650 446 631T522 582L476 531Q452 554 419 567T349 581Q297 581 253 554T182 465T154 295Q154 216 173 162T230 81T321 53Q359 53 389 70T438 119T456
193Q456 259 421 293T320 328Q282 328 238 308T153 238L150 303Q190 343 237 366T335 390Q394 390 439 368T509 302T534 193Q534 132 505 86T427 14T321 -12Z" />
<glyph unicode="7" d="M226 0Q230 91 243 166T281 307T345 437T438 567H70V638H532V587Q468 515 427 449T362 315T327 171T312 0H226Z" />
<glyph unicode="8" d="M302 -12Q230 -12 178 10T97 73T68 163Q68 207 88 239T139 294T205 333V337Q165 363 137 399T108 486Q108 535 133 572T203 629T305 650Q398 650 450 603T503 480Q503 435 475 396T406 328V324Q441 306 469 285T514 234T531 158Q531 111
505 73T427 11T302 -12ZM352 348Q432 406 432 476Q432 507 417 532T374 573T303 589Q251 589 217 561T183 486Q183 448 205 423T266 381T352 348ZM304 49Q375 49 413 80T452 161Q452 194 437 216T394 254T331 283T252 310Q221 293 196 273T157 228T143 171Q143
136 162 109T218 65T304 49Z" />
<glyph unicode="9" d="M257 -12Q198 -12 154 7T79 55L125 107Q149 84 182 70T252 56Q304 56 348 83T419 173T446 343Q446 422 427 475T370 557T280 585Q242 585 212 568T163 519T145 445Q145 380 180 345T281 310Q319 310 363 330T448 400L451 335Q412 295 364
272T265 248Q206 248 162 270T92 336T67 445Q67 506 96 552T174 624T279 650Q332 650 376 631T453 574T505 478T524 343Q524 247 502 179T443 69T357 8T257 -12Z" />
<glyph unicode=":" d="M300 346Q267 346 243 369T219 430Q219 468 243 491T300 515Q334 515 357 492T381 430Q381 393 358 370T300 346ZM300 -12Q267 -12 243 11T219 72Q219 110 243 133T300 157Q334 157 357 134T381 72Q381 35 358 12T300 -12Z" />
<glyph unicode=";" d="M300 346Q267 346 243 369T219 430Q219 468 243 491T300 515Q334 515 357 492T381 430Q381 393 358 370T300 346ZM220 -213L197 -161Q261 -133 292 -91T323 14L304 106L360 27Q348 13 334 9T304 4Q283 4 265 12T237 37T226 79Q226 116 250
135T306 155Q350 155 373 121T396 27Q396 -61 349 -121T220 -213Z" />
<glyph unicode="&lt;" d="M493 48L120 301V363L493 616V537L192 334V330L493 127V48Z" />
<glyph unicode="=" d="M85 406V468H515V406H85ZM85 448V510H515V448H85Z" />
<glyph unicode="&gt;" d="M107 48V127L408 330V334L107 537V616L480 363V301L107 48Z" />
<glyph unicode="?" d="M242 232Q235 275 248 307T286 365T336 413T380 461T398 517Q398 558 371 586T288 614Q250 614 218 599T158 556L109 601Q143 636 189 659T293 682Q349 682 390 663T455 608T479 526Q479 485 461 456T417 401T365 353T325 300T315 232H242ZM286
-12Q256 -12 235 9T213 66Q213 101 234 121T286 142Q316 142 337 122T359 66Q359 30 338 9T286 -12Z" />
<glyph unicode="@" d="M341 -144Q282 -144 229 -119T136 -44T73 80T49 250Q49 378 88 463T194 592T343 635Q412 635 457 604T524 519T546 397V100H496L489 158H485Q463 130 428 109T353 88Q318 88 289 104T242 149T224 219Q224 270 254 304T344 359T488 390V404Q488
452 473 492T425 556T339 580Q294 580 253 559T180 497T130 393T112 247Q112 140 142 65T225 -50T343 -89Q388 -89 421 -78T484 -44L512 -89Q473 -115 432 -129T341 -144ZM370 146Q398 146 426 162T482 210V336Q378 321 334 294T290 221Q290 186 312 166T370 146Z"
/>
<glyph unicode="A" d="M32 0L253 656H347L568 0H480L366 367Q349 422 333 476T301 588H297Q281 531 265 477T232 367L117 0H32ZM148 200V267H449V200H148Z" />
<glyph unicode="B" d="M99 0V656H285Q352 656 402 640T481 589T510 496Q510 447 482 408T395 353V349Q467 338 507 299T547 192Q547 128 516 85T430 21T300 0H99ZM182 380H271Q355 380 391 407T428 489Q428 542 390 564T275 586H182V380ZM182 70H288Q372 70 418
99T465 196Q465 257 420 283T288 310H182V70Z" />
<glyph unicode="C" d="M351 -12Q290 -12 238 11T147 77T87 184T65 328Q65 433 103 509T207 627T359 668Q418 668 464 644T538 588L491 535Q466 563 433 579T359 595Q296 595 250 563T177 471T151 330Q151 247 177 187T249 94T359 61Q404 61 440 80T507 134L554
83Q516 38 466 13T351 -12Z" />
<glyph unicode="D" d="M87 0V656H249Q348 656 415 619T518 508T553 331Q553 226 519 152T417 39T253 0H87ZM170 68H243Q318 68 367 99T442 189T467 331Q467 413 442 471T368 558T243 588H170V68Z" />
<glyph unicode="E" d="M114 0V656H520V586H198V380H470V309H198V71H530V0H114Z" />
<glyph unicode="F" d="M133 0V656H536V586H217V364H487V294H217V0H133Z" />
<glyph unicode="G" d="M337 -12Q255 -12 191 28T90 145T53 328Q53 434 90 510T193 627T344 668Q409 668 453 643T525 588L478 535Q454 561 423 578T344 595Q283 595 237 563T166 471T140 330Q140 247 164 187T233 94T342 61Q376 61 407 71T456 100V271H325V340H533V64Q502
32 452 10T337 -12Z" />
<glyph unicode="H" d="M79 0V656H163V381H437V656H521V0H437V309H163V0H79Z" />
<glyph unicode="I" d="M95 0V71H258V586H95V656H505V586H342V71H505V0H95Z" />
<glyph unicode="J" d="M276 -12Q221 -12 168 14T81 97L133 148Q161 104 198 83T274 61Q344 61 377 98T410 217V587H135V657H493V210Q493 149 473 99T406 18T276 -12Z" />
<glyph unicode="K" d="M98 0V656H182V327H185L461 656H556L182 209V0H98ZM486 0L283 366L334 432L580 0H486Z" />
<glyph unicode="L" d="M134 0V656H216V71H541V0H134Z" />
<glyph unicode="M" d="M72 0V656H174L266 376L298 270H302L333 376L426 656H528V0H448V328Q448 352 449 383T453 447T458 509T462 560H459L422 432L328 174H268L176 432L138 560H136Q138 539 140 510T145 447T148 383T150 328V0H72Z" />
<glyph unicode="N" d="M82 0V656H174L384 244L447 108H449Q447 157 443 210T438 316V656H518V0H426L216 412L153 548H151Q153 498 157 446T162 343V0H82Z" />
<glyph unicode="O" d="M300 -12Q226 -12 169 29T80 146T48 331Q48 437 80 512T169 628T300 668Q374 668 431 628T520 513T552 331Q552 223 520 147T431 29T300 -12ZM300 61Q350 61 387 93T445 186T466 331Q466 414 446 473T388 563T300 595Q250 595 213 564T155
473T134 331Q134 247 154 187T212 94T300 61Z" />
<glyph unicode="P" d="M102 0V656H300Q373 656 427 638T512 577T543 463Q543 394 513 350T427 283T300 260H185V0H102ZM185 328H290Q376 328 417 361T459 463Q459 534 417 561T290 589H185V328Z" />
<glyph unicode="Q" d="M300 -12Q226 -12 169 29T80 146T48 331Q48 437 80 512T169 628T300 668Q374 668 431 628T520 513T552 331Q552 223 520 147T431 29T300 -12ZM300 57Q350 57 387 89T445 183T466 331Q466 413 445 472T387 563T300 595Q250 595 213 564T155
473T134 331Q134 244 155 183T213 90T300 57ZM481 -163Q392 -163 337 -117T257 -1L343 6Q353 -26 373 -48T424 -81T490 -92Q505 -92 518 -89T539 -82L555 -149Q539 -155 521 -159T481 -163Z" />
<glyph unicode="R" d="M100 0V656H304Q371 656 422 639T503 581T533 472Q533 406 504 363T423 299T304 277H183V0H100ZM183 345H292Q369 345 409 376T450 472Q450 536 410 562T292 589H183V345ZM287 300L353 344L553 0H458L287 300Z" />
<glyph unicode="S" d="M305 -12Q233 -12 173 14T67 85L117 143Q154 106 203 84T309 61Q377 61 414 90T452 165Q452 200 437 221T395 256T334 284L240 325Q207 339 175 360T120 413T98 494Q98 544 125 583T202 645T313 668Q375 668 427 646T515 587L471 533Q439
562 400 578T310 595Q253 595 218 570T183 499Q183 468 200 448T245 415T300 390L392 350Q433 334 466 312T518 256T537 175Q537 123 509 81T429 13T305 -12Z" />
<glyph unicode="T" d="M258 0V586H42V656H558V586H342V0H258Z" />
<glyph unicode="U" d="M301 -12Q253 -12 213 2T142 47T96 128T79 248V656H163V246Q163 178 181 138T230 79T301 61Q341 61 372 79T422 137T440 246V656H521V248Q521 178 505 128T459 48T389 3T301 -12Z" />
<glyph unicode="V" d="M252 0L43 656H131L237 302Q255 244 268 194T300 85H304Q323 143 336 193T367 302L472 656H557L349 0H252Z" />
<glyph unicode="W" d="M110 0L10 657H104L152 245Q155 218 157 196T162 150T165 93H168Q174 126 179 149T189 195T200 244L264 488H344L406 244Q413 217 418 195T427 150T438 93H442Q444 126 445 149T449 195T454 244L500 657H590L494 0H390L326 264Q319 294 313
323T302 382H299Q294 352 289 323T276 264L212 0H110Z" />
<glyph unicode="X" d="M54 0L250 339L67 656H159L251 488Q264 466 276 444T304 393H308Q321 422 332 444T355 488L445 656H533L350 335L546 0H454L355 177Q342 201 328 226T297 282H293Q279 252 266 227T240 177L142 0H54Z" />
<glyph unicode="Y" d="M258 0V234L38 656H126L225 461Q244 424 262 386T300 308H304Q324 348 343 386T381 462L476 656H562L342 234V0H258Z" />
<glyph unicode="Z" d="M65 0V50L431 587H97V657H534V607L167 71H539V0H65Z" />
<glyph unicode="[" d="M225 -152V708H502V661H291V-105H502V-152H225Z" />
<glyph unicode="\" d="M427 -160L99 710H173L501 -160H427Z" />
<glyph unicode="]" d="M98 -152V-105H309V661H98V708H375V-152H98Z" />
<glyph unicode="^" d="M111 284L264 670H336L489 284H417L351 460L302 593H298L249 460L183 284H111Z" />
<glyph unicode="_" d="M60 -140V-69H540V-140H60Z" />
<glyph unicode="`" d="M321 568L164 721L222 777L364 609L321 568Z" />
<glyph unicode="a" d="M246 -12Q201 -12 163 4T103 52T81 126Q81 208 163 250T433 308Q432 341 420 369T379 413T304 430Q273 430 243 422T185 400T134 372L102 428Q126 444 160 460T235 487T318 498Q385 498 428 473T493 404T515 298V0H448L441 66H438Q398 34
348 11T246 -12ZM268 54Q310 54 351 73T433 126V254Q329 245 270 229T186 189T161 132Q161 105 176 88T215 62T268 54Z" />
<glyph unicode="b" d="M320 -12Q284 -12 244 5T169 54H166L159 0H93V712H175V518L172 424H175Q208 458 251 478T338 498Q404 498 449 468T517 382T540 251Q540 168 510 109T429 19T320 -12ZM307 57Q349 57 382 80T435 146T455 250Q455 303 441 343T397 406T318
429Q285 429 249 412T175 356V114Q210 83 245 70T307 57Z" />
<glyph unicode="c" d="M346 -12Q270 -12 210 18T115 105T80 242Q80 324 117 381T215 468T351 498Q411 498 454 477T528 427L487 374Q457 400 425 415T354 430Q298 430 255 407T189 341T165 242Q165 187 188 145T253 80T352 56Q397 56 434 74T502 117L539 64Q499
28 450 8T346 -12Z" />
<glyph unicode="d" d="M271 -12Q176 -12 118 54T60 242Q60 321 91 378T173 467T281 498Q324 498 359 482T426 435H429L425 525V712H507V0H439L432 64H429Q400 33 359 11T271 -12ZM288 57Q324 57 358 75T425 130V372Q392 403 361 416T297 429Q255 429 221 406T166
341T145 243Q145 156 183 107T288 57Z" />
<glyph unicode="e" d="M330 -12Q257 -12 198 18T103 105T68 244Q68 323 103 380T194 467T316 498Q386 498 435 470T511 390T538 270Q538 256 537 243T534 220H123V284H485L464 261Q464 347 425 390T318 433Q273 433 235 411T173 347T150 244Q150 181 175 139T243
76T340 54Q384 54 419 66T488 100L518 46Q482 22 436 5T330 -12Z" />
<glyph unicode="f" d="M242 0V527Q242 586 263 630T328 699T438 724Q474 724 508 718T578 696L559 634Q529 648 504 652T446 657Q381 657 352 623T323 530V0H242ZM103 419V481L245 486H527V419H103Z" />
<glyph unicode="g" d="M296 -224Q225 -224 175 -208T99 -162T72 -89Q72 -60 92 -32T152 19V23Q133 34 118 53T102 103Q102 126 117 150T160 194V198Q135 217 118 249T100 324Q100 377 126 416T196 476T291 498Q332 498 363 486H564V419H438Q455 402 467 376T479
321Q479 269 454 232T387 174T291 154Q272 154 251 158T209 172Q191 161 181 147T171 116Q171 88 197 74T272 60H381Q475 60 520 34T566 -54Q566 -99 533 -138T440 -200T296 -224ZM291 209Q322 209 347 223T388 263T403 324Q403 358 388 383T348 423T291 438Q261
438 236 424T195 384T179 324Q179 289 194 263T235 223T291 209ZM302 -164Q359 -164 400 -150T463 -114T485 -67Q485 -32 458 -20T374 -8H279Q258 -8 240 -6T205 0Q171 -19 157 -39T143 -81Q143 -119 183 -141T302 -164Z" />
<glyph unicode="h" d="M93 0V712H175V518L170 403H173Q210 443 254 470T355 498Q441 498 482 448T523 302V0H441V291Q441 360 415 393T329 427Q286 427 252 405T175 339V0H93Z" />
<glyph unicode="i" d="M316 0V419H90V486H398V0H316ZM348 588Q320 588 301 605T282 652Q282 681 301 698T348 716Q376 716 395 699T414 652Q414 623 395 606T348 588Z" />
<glyph unicode="j" d="M194 -217Q156 -217 120 -208T55 -184L82 -123Q108 -136 136 -143T193 -150Q242 -150 268 -135T305 -89T316 -18V419H90V486H398V-12Q398 -57 388 -94T355 -159T293 -202T194 -217ZM348 588Q320 588 301 605T282 652Q282 681 301 698T348
716Q376 716 395 699T414 652Q414 623 395 606T348 588Z" />
<glyph unicode="k" d="M106 0V712H188V230H192L454 486H548L188 132V0H106ZM482 0L292 259L342 312L574 0H482Z" />
<glyph unicode="l" d="M406 -12Q329 -12 288 32T247 163V645H81V712H329V157Q329 104 355 80T424 56Q445 56 467 61T516 79L537 17Q504 5 475 -3T406 -12Z" />
<glyph unicode="m" d="M58 0V486H124L131 422H133Q152 456 177 477T244 498Q280 498 303 477T336 414Q357 453 382 475T450 498Q501 498 529 460T558 348V0H476V342Q476 427 424 427Q399 427 383 409T346 352V0H270V342Q270 384 259 405T220 427Q195 427 177 409T140
352V0H58Z" />
<glyph unicode="n" d="M93 0V486H161L168 403H172Q210 444 254 471T355 498Q441 498 482 448T523 302V0H441V291Q441 360 415 393T329 427Q286 427 252 405T175 339V0H93Z" />
<glyph unicode="o" d="M300 -12Q236 -12 182 18T94 105T60 242Q60 324 93 381T181 468T300 498Q364 498 418 468T506 381T540 242Q540 162 507 105T419 18T300 -12ZM300 56Q347 56 382 79T436 145T455 242Q455 298 436 340T382 406T300 430Q253 430 219 407T165
341T145 242Q145 187 164 145T218 80T300 56Z" />
<glyph unicode="p" d="M93 -205V486H161L168 424H171Q205 456 249 477T339 498Q405 498 449 468T517 382T540 250Q540 168 509 109T428 19T319 -12Q286 -12 247 4T174 51H171L175 -41V-205H93ZM305 57Q348 57 382 80T435 146T455 250Q455 303 441 343T397 406T318
429Q285 429 249 412T175 356V114Q210 83 245 70T305 57Z" />
<glyph unicode="q" d="M425 -205V-28L429 62H426Q397 31 356 10T270 -12Q176 -12 118 54T60 242Q60 321 91 378T173 467T281 498Q325 498 361 482T431 432H434L441 486H507V-205H425ZM288 57Q324 57 358 75T425 130V372Q392 403 361 416T297 429Q255 429 221 406T166
341T145 243Q145 156 183 107T288 57Z" />
<glyph unicode="r" d="M146 0V486H214L221 371H224Q262 430 318 464T441 498Q468 498 491 494T537 478L518 407Q493 416 475 420T428 424Q373 424 323 393T228 285V0H146Z" />
<glyph unicode="s" d="M310 -12Q239 -12 177 11T71 64L109 118Q151 88 202 70T320 52Q382 52 412 75T443 128Q443 142 438 154T417 177T371 198T291 218Q196 238 149 272T101 360Q101 419 152 458T303 498Q359 498 411 480T499 436L459 383Q426 407 384 420T296
434Q254 434 230 425T195 399T184 364Q184 333 217 316T325 283Q406 266 449 245T509 197T526 133Q526 93 501 61T428 8T310 -12Z" />
<glyph unicode="t" d="M394 -12Q323 -12 282 13T224 84T206 189V419H69V481L209 486L220 642H288V486H527V419H288V188Q288 145 299 115T337 70T411 55Q446 55 474 61T528 77L546 17Q513 5 477 -3T394 -12Z" />
<glyph unicode="u" d="M246 -12Q159 -12 118 38T77 184V486H160V195Q160 126 185 93T272 59Q314 59 348 80T423 149V486H505V0H438L431 85H427Q390 43 346 16T246 -12Z" />
<glyph unicode="v" d="M256 0L51 486H134L246 210Q261 174 274 138T301 67H305Q318 102 331 138T358 210L470 486H549L348 0H256Z" />
<glyph unicode="w" d="M114 0L8 486H90L148 204Q155 170 160 138T170 70H174Q179 105 186 137T202 204L262 456H344L402 204Q410 170 419 138T432 70H436Q442 105 446 137T458 204L516 486H592L488 0H382L326 232Q320 258 314 294T302 376H298Q292 330 286 294T274
232L220 0H114Z" />
<glyph unicode="x" d="M64 0L249 252L78 486H169L246 379Q259 360 274 339T303 297H307Q320 318 334 339T362 381L435 486H522L349 245L535 0H445L360 112Q345 133 329 156T296 200H292Q277 179 262 157T232 112L152 0H64Z" />
<glyph unicode="y" d="M131 -209Q115 -209 98 -206T67 -199L84 -134Q94 -137 105 -139T128 -141Q179 -141 211 -112T261 -37L276 -1L49 486H132L251 217Q265 185 280 149T311 76H315Q328 111 341 147T367 217L473 486H551L337 -40Q319 -88 292 -126T226 -187T131 -209Z" />
<glyph unicode="z" d="M71 0V44L404 419H108V486H522V442L188 67H531V0H71Z" />
<glyph unicode="{" d="M441 -152Q347 -152 302 -124T256 -19Q256 18 258 49T262 110T265 174Q265 194 254 211T211 240T120 252V304Q179 304 210 315T253 345T265 382Q265 413 263 444T258 508T256 575Q256 652 301 680T441 708H502V661H450Q399 661 373 652T336
623T326 570Q326 527 329 482T332 389Q332 341 313 315T241 280V276Q293 267 312 241T332 167Q332 117 329 75T326 -14Q326 -46 336 -66T372 -95T450 -105H502V-152H441Z" />
<glyph unicode="|" d="M263 -250V750H337V-250H263Z" />
<glyph unicode="}" d="M99 -152V-105H150Q202 -105 228 -96T265 -66T275 -14Q275 32 272 74T269 167Q269 215 288 241T359 276V280Q307 289 288 315T269 389Q269 436 272 481T275 570Q275 603 265 622T229 651T150 661H99V708H160Q254 708 299 680T344 575Q344
540 342 508T338 445T335 382Q335 363 346 345T389 316T480 304V252Q421 252 390 241T347 212T335 174Q335 141 337 111T342 49T344 -19Q344 -96 299 -124T160 -152H99Z" />
<glyph unicode="~" d="M388 257Q359 257 335 270T291 299T251 328T210 341Q195 341 181 334T154 309T129 255L76 278Q102 349 138 376T212 403Q242 403 265 390T309 361T349 332T390 319Q406 319 420 326T447 351T471 405L524 381Q498 311 462 284T388 257Z" />
<glyph unicode="&#xa0;" />
<glyph unicode="&#xa1;" d="M260 -184L262 -90L272 254H328L338 -90L340 -184H260ZM300 344Q270 344 249 364T227 421Q227 457 248 477T300 498Q330 498 351 478T373 421Q373 385 352 365T300 344Z" />
<glyph unicode="&#xa2;" d="M348 69Q279 69 226 97T143 179T113 310Q113 387 146 441T233 522T354 550Q402 550 437 533T496 492L456 440Q435 460 411 471T358 482Q309 482 272 461T215 401T194 310Q194 232 237 185T355 138Q390 138 419 152T470 185L506 133Q473
103 433 86T348 69ZM314 -33V653H365V-33H314Z" />
<glyph unicode="&#xa3;" d="M78 0V50Q140 78 171 126T202 230Q202 260 194 290T173 349T153 407T144 466Q144 523 170 564T243 627T354 650Q416 650 458 629T530 575L482 528Q459 552 430 566T358 581Q293 581 258 549T223 464Q223 434 230 407T248 351T267 293T275
229Q275 177 257 142T203 75V71H531V0H78ZM77 285V337L180 341H442V285H77Z" />
<glyph unicode="&#xa4;" d="M102 83L58 128L142 213Q124 236 115 265T106 329Q106 364 115 393T141 446L58 532L102 577L189 487Q238 524 300 524Q361 524 411 487L498 577L542 532L458 446Q475 423 484 394T494 329Q494 295 485 266T458 213L542 128L498 83L410
172Q387 153 359 144T300 134Q237 134 189 172L102 83ZM300 195Q332 195 359 212T402 259T418 329Q418 369 403 399T360 446T300 463Q268 463 241 446T198 399T182 329Q182 289 198 259T241 212T300 195Z" />
<glyph unicode="&#xa5;" d="M258 0V158H77V206H258V271H77V318H238L53 638H138L230 467Q247 434 264 401T299 332H303Q321 367 338 400T373 467L465 638H547L361 318H523V271H340V206H523V158H340V0H258Z" />
<glyph unicode="&#xa6;" d="M263 -250V190H337V-250H263ZM263 310V750H337V310H263Z" />
<glyph unicode="&#xa7;" d="M287 -64Q233 -64 187 -45T108 7L158 52Q184 28 214 14T287 0Q327 0 350 20T373 69Q373 97 353 116T300 149T232 179T163 214T111 266T91 343Q91 393 124 428T206 484L245 443Q207 426 185 405T162 348Q162 315 183 293T236 255T305
224T374 190T427 143T448 73Q448 33 428 3T371 -46T287 -64ZM348 183Q392 199 415 219T438 278Q438 313 417 335T364 374T294 405T225 438T172 485T151 554Q151 588 168 618T218 666T302 684Q351 684 392 667T463 627L423 574Q398 594 370 607T306 620Q263 620
245 602T226 557Q226 530 246 512T299 480T368 450T436 413T489 361T509 284Q509 248 495 222T454 176T393 141L348 183Z" />
<glyph unicode="&#xa8;" d="M203 588Q179 588 164 604T148 644Q148 667 163 683T203 700Q227 700 242 684T258 644Q258 621 243 605T203 588ZM397 588Q373 588 358 604T342 644Q342 667 357 683T397 700Q421 700 436 684T452 644Q452 621 437 605T397 588Z" />
<glyph unicode="&#xa9;" d="M300 -11Q223 -11 163 30T66 146T30 323Q30 426 66 500T162 613T300 653Q377 653 437 614T534 500T570 323Q570 221 534 146T438 30T300 -11ZM300 31Q367 31 417 67T496 170T524 323Q524 411 496 475T418 576T300 612Q233 612 183 576T104
476T76 323Q76 236 104 170T182 68T300 31ZM308 125Q263 125 227 148T168 216T146 323Q146 381 169 423T229 489T311 512Q347 512 371 499T415 465L381 426Q365 441 350 449T314 457Q269 457 241 420T212 323Q212 257 239 219T310 180Q337 180 356 190T391 214L421
172Q399 152 373 139T308 125Z" />
<glyph unicode="&#xaa;" d="M269 387Q225 387 194 412T163 479Q163 531 216 560T382 598Q381 619 374 636T351 663T307 673Q279 673 252 663T201 639L176 682Q202 698 240 711T318 724Q383 724 414 689T446 590V395H393L389 433H387Q362 414 332 401T269 387ZM285
436Q311 436 334 446T382 476V559Q297 551 261 533T225 485Q225 459 243 448T285 436Z" />
<glyph unicode="&#xab;" d="M491 52L338 212V292L491 452L530 417L403 252L530 86L491 52ZM465 52L312 212V292L465 452L504 417L377 252L504 86L465 52Z" />
<glyph unicode="&#xac;" d="M449 104V299H85V361H515V104H449Z" />
<glyph unicode="&#xad;" d="M85 299V361H515V299H85Z" />
<glyph unicode="&#xae;" d="M300 319Q248 319 205 344T137 413T112 516Q112 574 137 618T205 688T300 713Q351 713 394 688T462 619T488 516Q488 457 463 413T394 344T300 319ZM300 356Q342 356 375 376T428 432T448 516Q448 563 429 599T376 656T300 677Q258
677 224 657T171 600T151 516Q151 469 170 433T224 376T300 356ZM227 417V620H303Q335 620 358 606T382 555Q382 537 372 522T344 500L390 417H344L309 487H268V417H227ZM268 519H294Q314 519 326 527T338 553Q338 568 329 577T296 586H268V519Z" />
<glyph unicode="&#xaf;" d="M167 601V658H433V601H167Z" />
<glyph unicode="&#xb0;" d="M300 429Q267 429 239 444T193 489T175 556Q175 595 192 624T238 669T300 685Q334 685 362 669T408 624T426 556Q426 518 409 489T363 445T300 429ZM300 475Q334 475 355 498T376 556Q376 593 355 616T300 639Q267 639 246 616T225
556Q225 521 246 498T300 475Z" />
<glyph unicode="&#xb1;" d="M267 127V304H85V366H267V556H333V366H515V304H333V127H267ZM85 0V62H515V0H85Z" />
<glyph unicode="&#xb2;" d="M162 395L158 432Q225 489 271 529T340 600T363 661Q363 699 340 721T278 743Q251 743 226 727T184 686L146 721Q169 755 206 776T287 797Q349 797 388 765T427 670Q427 633 406 600T347 530T262 449H446V395H162Z" />
<glyph unicode="&#xb3;" d="M297 383Q246 383 206 404T142 459L184 492Q203 464 231 449T293 434Q329 434 355 452T381 503Q381 538 349 555T250 573V613Q310 613 338 633T366 684Q366 712 344 729T286 746Q261 746 238 733T196 698L158 732Q183 763 217 780T295
797Q332 797 362 785T411 748T430 692Q430 657 411 634T351 596Q394 588 419 563T445 500Q445 464 425 438T372 397T297 383Z" />
<glyph unicode="&#xb4;" d="M279 568L236 609L378 777L436 721L279 568Z" />
<glyph unicode="&#xb5;" d="M84 -187V486H166V195Q166 128 191 94T269 59Q294 59 318 67T367 97T417 164V486H500Q499 420 498 352T495 217T494 92Q494 73 502 65T522 56Q526 56 529 56T540 58L551 -4Q543 -7 531 -9T504 -12Q466 -12 447 10T424 92H422Q392 40
353 15T268 -10Q235 -10 208 0T160 43Q160 -7 160 -44T162 -114T167 -187H84Z" />
<glyph unicode="&#xb6;" d="M318 226Q247 226 192 249T105 320T72 443Q72 521 103 568T187 635T307 656H350V226H318ZM404 -80V656H485V-80H404Z" />
<glyph unicode="&#xb7;" d="M300 263Q267 263 243 286T219 347Q219 385 243 408T300 432Q334 432 357 409T381 347Q381 310 358 287T300 263Z" />
<glyph unicode="&#xb8;" d="M213 -226L205 -186Q268 -181 291 -170T314 -136Q314 -116 297 -105T237 -88L277 8H331L305 -64Q340 -72 359 -88T378 -135Q378 -178 336 -200T213 -226Z" />
<glyph unicode="&#xb9;" d="M298 395V703H193V744Q234 751 260 759T310 785H362V395H298ZM175 395V449H476V395H175Z" />
<glyph unicode="&#xba;" d="M300 387Q258 387 222 406T164 464T142 555Q142 609 164 646T222 704T300 724Q342 724 378 704T436 647T458 555Q458 502 436 464T378 407T300 387ZM300 439Q343 439 367 471T392 555Q392 608 368 640T300 672Q257 672 233 640T208
555Q208 503 232 471T300 439Z" />
<glyph unicode="&#xbb;" d="M391 52L352 86L479 252L352 417L391 452L544 292V212L391 52ZM365 52L326 86L453 252L326 417L365 452L518 292V212L365 52Z" />
<glyph unicode="&#xbc;" d="M149 333V563H67V605Q100 610 120 618T162 638H212V333H149ZM77 32L28 77L211 265L244 235L77 32ZM389 391L356 421L523 624L572 579L389 391ZM468 0V213H525V0H468ZM306 74V105L419 317L465 297L368 116H575V74H306Z" />
<glyph unicode="&#xbd;" d="M149 333V563H67V605Q100 610 120 618T162 638H212V333H149ZM77 32L28 77L211 265L244 235L77 32ZM389 391L356 421L523 624L572 579L389 391ZM324 0V36Q376 76 412 106T466 160T485 206Q485 234 470 249T425 265Q405 265 386 254T353
223L314 256Q336 282 366 299T432 317Q486 317 517 290T548 214Q548 187 532 162T488 110T427 53H563V0H324Z" />
<glyph unicode="&#xbe;" d="M158 321Q124 321 90 335T31 375L63 414Q78 396 102 384T154 371Q181 371 198 382T216 418Q216 443 193 456T120 469V507Q161 507 181 521T201 558Q201 578 188 589T146 601Q128 601 108 592T73 567L43 605Q62 625 93 637T158 650Q205
650 234 628T264 566Q264 538 251 520T208 491Q241 484 260 465T279 414Q279 385 263 364T220 332T158 321ZM102 32L53 77L236 265L269 235L102 32ZM414 391L381 421L548 624L597 579L414 391ZM468 0V213H525V0H468ZM306 74V105L419 317L465 297L368 116H575V74H306Z"
/>
<glyph unicode="&#xbf;" d="M307 -196Q251 -196 210 -177T145 -122T121 -40Q121 1 139 31T183 85T235 133T275 186T285 254H358Q365 211 352 179T314 122T264 73T220 25T202 -31Q202 -72 230 -99T312 -127Q351 -127 383 -112T442 -70L491 -115Q458 -150 412 -173T307
-196ZM314 344Q284 344 263 364T241 421Q241 457 262 477T314 498Q344 498 365 478T387 421Q387 385 366 365T314 344Z" />
<glyph unicode="&#xc0;" d="M32 0L253 656H347L568 0H480L366 367Q349 422 333 476T301 588H297Q281 531 265 477T232 367L117 0H32ZM148 200V267H449V200H148ZM329 697L177 812L224 867L365 739L329 697Z" />
<glyph unicode="&#xc1;" d="M32 0L253 656H347L568 0H480L366 367Q349 422 333 476T301 588H297Q281 531 265 477T232 367L117 0H32ZM148 200V267H449V200H148ZM271 697L235 739L376 867L423 812L271 697Z" />
<glyph unicode="&#xc2;" d="M32 0L253 656H347L568 0H480L366 367Q349 422 333 476T301 588H297Q281 531 265 477T232 367L117 0H32ZM148 200V267H449V200H148ZM188 699L152 725L257 838H343L448 725L412 699L302 792H298L188 699Z" />
<glyph unicode="&#xc3;" d="M32 0L253 656H347L568 0H480L366 367Q349 422 333 476T301 588H297Q281 531 265 477T232 367L117 0H32ZM148 200V267H449V200H148ZM375 709Q347 709 327 719T291 744T260 769T227 780Q208 780 195 763T179 714L123 718Q126 776 153
808T225 841Q253 841 273 830T310 806T340 781T373 770Q392 770 405 787T421 836L477 832Q475 774 448 742T375 709Z" />
<glyph unicode="&#xc4;" d="M32 0L253 656H347L568 0H480L366 367Q349 422 333 476T301 588H297Q281 531 265 477T232 367L117 0H32ZM148 200V267H449V200H148ZM209 715Q187 715 173 729T158 766Q158 788 172 802T209 816Q231 816 245 802T259 766Q259 744 245
730T209 715ZM391 715Q370 715 356 729T341 766Q341 788 355 802T391 816Q414 816 428 802T442 766Q442 744 428 730T391 715Z" />
<glyph unicode="&#xc5;" d="M32 0L253 656H347L568 0H480L366 367Q349 422 333 476T301 588H297Q281 531 265 477T232 367L117 0H32ZM148 200V267H449V200H148ZM300 699Q258 699 231 724T203 789Q203 830 230 855T300 880Q341 880 369 855T397 789Q397 749 369
724T300 699ZM300 735Q320 735 335 749T351 789Q351 814 336 828T300 843Q278 843 263 829T248 789Q248 763 263 749T300 735Z" />
<glyph unicode="&#xc6;" d="M-1 0L263 656H582V586H393V381H540V310H393V71H591V0H317V590H314Q294 537 273 484T231 377L86 0H-1ZM131 191V258H357V191H131Z" />
<glyph unicode="&#xc7;" d="M351 -12Q290 -12 238 11T147 77T87 184T65 328Q65 433 103 509T207 627T359 668Q418 668 464 644T538 588L491 535Q466 563 433 579T359 595Q296 595 250 563T177 471T151 330Q151 247 177 187T249 94T359 61Q404 61 440 80T507 134L554
83Q516 38 466 13T351 -12ZM263 -226L255 -186Q318 -181 341 -170T364 -136Q364 -116 347 -105T287 -88L327 8H381L355 -64Q390 -72 409 -88T428 -135Q428 -178 386 -200T263 -226Z" />
<glyph unicode="&#xc8;" d="M114 0V656H520V586H198V380H470V309H198V71H530V0H114ZM360 697L208 812L255 867L396 739L360 697Z" />
<glyph unicode="&#xc9;" d="M114 0V656H520V586H198V380H470V309H198V71H530V0H114ZM302 697L266 739L407 867L454 812L302 697Z" />
<glyph unicode="&#xca;" d="M114 0V656H520V586H198V380H470V309H198V71H530V0H114ZM219 699L183 725L288 838H374L479 725L443 699L333 792H329L219 699Z" />
<glyph unicode="&#xcb;" d="M114 0V656H520V586H198V380H470V309H198V71H530V0H114ZM240 715Q218 715 204 729T189 766Q189 788 203 802T240 816Q262 816 276 802T290 766Q290 744 276 730T240 715ZM422 715Q401 715 387 729T372 766Q372 788 386 802T422 816Q445
816 459 802T473 766Q473 744 459 730T422 715Z" />
<glyph unicode="&#xcc;" d="M95 0V71H258V586H95V656H505V586H342V71H505V0H95ZM329 697L177 812L224 867L365 739L329 697Z" />
<glyph unicode="&#xcd;" d="M95 0V71H258V586H95V656H505V586H342V71H505V0H95ZM271 697L235 739L376 867L423 812L271 697Z" />
<glyph unicode="&#xce;" d="M95 0V71H258V586H95V656H505V586H342V71H505V0H95ZM188 699L152 725L257 838H343L448 725L412 699L302 792H298L188 699Z" />
<glyph unicode="&#xcf;" d="M95 0V71H258V586H95V656H505V586H342V71H505V0H95ZM209 715Q187 715 173 729T158 766Q158 788 172 802T209 816Q231 816 245 802T259 766Q259 744 245 730T209 715ZM391 715Q370 715 356 729T341 766Q341 788 355 802T391 816Q414
816 428 802T442 766Q442 744 428 730T391 715Z" />
<glyph unicode="&#xd0;" d="M87 0V314H12V370L87 376V656H249Q348 656 415 618T518 508T553 331Q553 226 518 152T417 39T253 0H87ZM170 68H243Q318 68 367 99T441 189T466 331Q466 414 442 471T368 558T243 588H170V376H314V314H170V68Z" />
<glyph unicode="&#xd1;" d="M82 0V656H174L384 244L447 108H449Q447 157 443 210T438 316V656H518V0H426L216 412L153 548H151Q153 498 157 446T162 343V0H82ZM385 709Q357 709 337 719T301 744T270 769T237 780Q218 780 205 763T189 714L133 718Q136 776 163
808T235 841Q263 841 283 830T320 806T350 781T383 770Q402 770 415 787T431 836L487 832Q485 774 458 742T385 709Z" />
<glyph unicode="&#xd2;" d="M300 -12Q226 -12 169 29T80 146T48 331Q48 437 80 512T169 628T300 668Q374 668 431 628T520 513T552 331Q552 223 520 147T431 29T300 -12ZM300 61Q350 61 387 93T445 186T466 331Q466 414 446 473T388 563T300 595Q250 595 213 564T155
473T134 331Q134 247 154 187T212 94T300 61ZM329 697L177 812L224 867L365 739L329 697Z" />
<glyph unicode="&#xd3;" d="M300 -12Q226 -12 169 29T80 146T48 331Q48 437 80 512T169 628T300 668Q374 668 431 628T520 513T552 331Q552 223 520 147T431 29T300 -12ZM300 61Q350 61 387 93T445 186T466 331Q466 414 446 473T388 563T300 595Q250 595 213 564T155
473T134 331Q134 247 154 187T212 94T300 61ZM271 697L235 739L376 867L423 812L271 697Z" />
<glyph unicode="&#xd4;" d="M300 -12Q226 -12 169 29T80 146T48 331Q48 437 80 512T169 628T300 668Q374 668 431 628T520 513T552 331Q552 223 520 147T431 29T300 -12ZM300 61Q350 61 387 93T445 186T466 331Q466 414 446 473T388 563T300 595Q250 595 213 564T155
473T134 331Q134 247 154 187T212 94T300 61ZM188 699L152 725L257 838H343L448 725L412 699L302 792H298L188 699Z" />
<glyph unicode="&#xd5;" d="M300 -12Q226 -12 169 29T80 146T48 331Q48 437 80 512T169 628T300 668Q374 668 431 628T520 513T552 331Q552 223 520 147T431 29T300 -12ZM300 61Q350 61 387 93T445 186T466 331Q466 414 446 473T388 563T300 595Q250 595 213 564T155
473T134 331Q134 247 154 187T212 94T300 61ZM375 709Q347 709 327 719T291 744T260 769T227 780Q208 780 195 763T179 714L123 718Q126 776 153 808T225 841Q253 841 273 830T310 806T340 781T373 770Q392 770 405 787T421 836L477 832Q475 774 448 742T375 709Z"
/>
<glyph unicode="&#xd6;" d="M300 -12Q226 -12 169 29T80 146T48 331Q48 437 80 512T169 628T300 668Q374 668 431 628T520 513T552 331Q552 223 520 147T431 29T300 -12ZM300 61Q350 61 387 93T445 186T466 331Q466 414 446 473T388 563T300 595Q250 595 213 564T155
473T134 331Q134 247 154 187T212 94T300 61ZM209 715Q187 715 173 729T158 766Q158 788 172 802T209 816Q231 816 245 802T259 766Q259 744 245 730T209 715ZM391 715Q370 715 356 729T341 766Q341 788 355 802T391 816Q414 816 428 802T442 766Q442 744 428 730T391
715Z" />
<glyph unicode="&#xd7;" d="M146 126L102 171L256 330L102 488L146 533L300 374L454 533L498 488L344 330L498 171L454 126L300 286L146 126Z" />
<glyph unicode="&#xd8;" d="M36 4L504 688L560 652L92 -32L36 4ZM300 -12Q226 -12 169 29T80 146T48 331Q48 437 80 512T169 628T300 668Q374 668 431 628T520 513T552 331Q552 223 520 147T431 29T300 -12ZM300 61Q350 61 387 93T445 186T466 331Q466 414 446
473T388 563T300 595Q250 595 213 564T155 473T134 331Q134 247 154 187T212 94T300 61Z" />
<glyph unicode="&#xd9;" d="M301 -12Q253 -12 213 2T142 47T96 128T79 248V656H163V246Q163 178 181 138T230 79T301 61Q341 61 372 79T422 137T440 246V656H521V248Q521 178 505 128T459 48T389 3T301 -12ZM329 697L177 812L224 867L365 739L329 697Z" />
<glyph unicode="&#xda;" d="M301 -12Q253 -12 213 2T142 47T96 128T79 248V656H163V246Q163 178 181 138T230 79T301 61Q341 61 372 79T422 137T440 246V656H521V248Q521 178 505 128T459 48T389 3T301 -12ZM271 697L235 739L376 867L423 812L271 697Z" />
<glyph unicode="&#xdb;" d="M301 -12Q253 -12 213 2T142 47T96 128T79 248V656H163V246Q163 178 181 138T230 79T301 61Q341 61 372 79T422 137T440 246V656H521V248Q521 178 505 128T459 48T389 3T301 -12ZM188 699L152 725L257 838H343L448 725L412 699L302
792H298L188 699Z" />
<glyph unicode="&#xdc;" d="M301 -12Q253 -12 213 2T142 47T96 128T79 248V656H163V246Q163 178 181 138T230 79T301 61Q341 61 372 79T422 137T440 246V656H521V248Q521 178 505 128T459 48T389 3T301 -12ZM209 715Q187 715 173 729T158 766Q158 788 172 802T209
816Q231 816 245 802T259 766Q259 744 245 730T209 715ZM391 715Q370 715 356 729T341 766Q341 788 355 802T391 816Q414 816 428 802T442 766Q442 744 428 730T391 715Z" />
<glyph unicode="&#xdd;" d="M258 0V234L38 656H126L225 461Q244 424 262 386T300 308H304Q324 348 343 386T381 462L476 656H562L342 234V0H258ZM271 697L235 739L376 867L423 812L271 697Z" />
<glyph unicode="&#xde;" d="M101 0V656H185V546H303Q375 546 429 528T514 467T545 353Q545 284 515 239T429 172T303 150H185V0H101ZM185 218H292Q378 218 420 250T462 353Q462 424 420 451T292 478H185V218Z" />
<glyph unicode="&#xdf;" d="M401 -12Q359 -12 324 0T257 33L290 91Q318 71 344 62T399 52Q442 52 464 75T486 130Q486 159 472 178T434 211T385 238T336 267T299 306T284 364Q284 399 297 423T329 470T360 516T374 571Q374 608 352 632T288 657Q234 657 202 619T170
507V0H88V519Q88 580 112 626T181 698T289 724Q342 724 378 704T434 650T453 576Q453 539 440 512T408 464T377 421T363 374Q363 350 377 334T415 305T463 279T512 247T549 203T564 137Q564 95 544 62T488 8T401 -12Z" />
<glyph unicode="&#xe0;" d="M246 -12Q201 -12 163 4T103 52T81 126Q81 208 163 250T433 308Q432 341 420 369T379 413T304 430Q273 430 243 422T185 400T134 372L102 428Q126 444 160 460T235 487T318 498Q385 498 428 473T493 404T515 298V0H448L441 66H438Q398
34 348 11T246 -12ZM268 54Q310 54 351 73T433 126V254Q329 245 270 229T186 189T161 132Q161 105 176 88T215 62T268 54ZM341 568L184 721L242 777L384 609L341 568Z" />
<glyph unicode="&#xe1;" d="M246 -12Q201 -12 163 4T103 52T81 126Q81 208 163 250T433 308Q432 341 420 369T379 413T304 430Q273 430 243 422T185 400T134 372L102 428Q126 444 160 460T235 487T318 498Q385 498 428 473T493 404T515 298V0H448L441 66H438Q398
34 348 11T246 -12ZM268 54Q310 54 351 73T433 126V254Q329 245 270 229T186 189T161 132Q161 105 176 88T215 62T268 54ZM299 568L256 609L398 777L456 721L299 568Z" />
<glyph unicode="&#xe2;" d="M246 -12Q201 -12 163 4T103 52T81 126Q81 208 163 250T433 308Q432 341 420 369T379 413T304 430Q273 430 243 422T185 400T134 372L102 428Q126 444 160 460T235 487T318 498Q385 498 428 473T493 404T515 298V0H448L441 66H438Q398
34 348 11T246 -12ZM268 54Q310 54 351 73T433 126V254Q329 245 270 229T186 189T161 132Q161 105 176 88T215 62T268 54ZM200 568L165 600L279 740H361L475 600L440 568L322 681H318L200 568Z" />
<glyph unicode="&#xe3;" d="M246 -12Q201 -12 163 4T103 52T81 126Q81 208 163 250T433 308Q432 341 420 369T379 413T304 430Q273 430 243 422T185 400T134 372L102 428Q126 444 160 460T235 487T318 498Q385 498 428 473T493 404T515 298V0H448L441 66H438Q398
34 348 11T246 -12ZM268 54Q310 54 351 73T433 126V254Q329 245 270 229T186 189T161 132Q161 105 176 88T215 62T268 54ZM392 577Q366 577 347 589T311 619T281 648T249 661Q227 661 216 640T202 582L147 585Q148 625 159 655T191 703T248 721Q275 721 294 709T329
679T359 650T392 637Q414 637 425 659T438 716L493 712Q492 674 481 644T449 595T392 577Z" />
<glyph unicode="&#xe4;" d="M246 -12Q201 -12 163 4T103 52T81 126Q81 208 163 250T433 308Q432 341 420 369T379 413T304 430Q273 430 243 422T185 400T134 372L102 428Q126 444 160 460T235 487T318 498Q385 498 428 473T493 404T515 298V0H448L441 66H438Q398
34 348 11T246 -12ZM268 54Q310 54 351 73T433 126V254Q329 245 270 229T186 189T161 132Q161 105 176 88T215 62T268 54ZM223 588Q199 588 184 604T168 644Q168 667 183 683T223 700Q247 700 262 684T278 644Q278 621 263 605T223 588ZM417 588Q393 588 378 604T362
644Q362 667 377 683T417 700Q441 700 456 684T472 644Q472 621 457 605T417 588Z" />
<glyph unicode="&#xe5;" d="M246 -12Q201 -12 163 4T103 52T81 126Q81 208 163 250T433 308Q432 341 420 369T379 413T304 430Q273 430 243 422T185 400T134 372L102 428Q126 444 160 460T235 487T318 498Q385 498 428 473T493 404T515 298V0H448L441 66H438Q398
34 348 11T246 -12ZM268 54Q310 54 351 73T433 126V254Q329 245 270 229T186 189T161 132Q161 105 176 88T215 62T268 54ZM320 569Q269 569 240 597T210 665Q210 706 239 733T320 761Q372 761 401 734T430 665Q430 625 401 597T320 569ZM320 606Q344 606 360 623T377
665Q377 691 361 707T320 724Q296 724 280 708T263 665Q263 640 280 623T320 606Z" />
<glyph unicode="&#xe6;" d="M145 -12Q90 -12 54 23T17 120Q17 171 44 208T131 270T285 304V251Q210 242 168 225T110 184T93 128Q93 93 113 74T167 54Q198 54 232 76T294 139L322 97Q283 46 239 17T145 -12ZM454 -12Q394 -12 352 20T288 110T266 242V291Q266 369
242 399T178 430Q148 430 118 418T64 390L33 446Q63 466 102 482T185 498Q235 498 268 468T317 366H296Q319 437 360 467T448 498Q499 498 532 468T581 387T597 276Q597 262 596 248T593 220H308V284H545L530 264Q530 349 509 391T443 433Q415 433 390 415T348
355T331 244Q331 186 345 144T388 78T457 55Q485 55 509 64T552 87L582 31Q557 13 525 1T454 -12Z" />
<glyph unicode="&#xe7;" d="M346 -12Q270 -12 210 18T115 105T80 242Q80 324 117 381T215 468T351 498Q411 498 454 477T528 427L487 374Q457 400 425 415T354 430Q298 430 255 407T189 341T165 242Q165 187 188 145T253 80T352 56Q397 56 434 74T502 117L539
64Q499 28 450 8T346 -12ZM259 -226L251 -186Q314 -181 337 -170T360 -136Q360 -116 343 -105T283 -88L323 8H377L351 -64Q386 -72 405 -88T424 -135Q424 -178 382 -200T259 -226Z" />
<glyph unicode="&#xe8;" d="M330 -12Q257 -12 198 18T103 105T68 244Q68 323 103 380T194 467T316 498Q386 498 435 470T511 390T538 270Q538 256 537 243T534 220H123V284H485L464 261Q464 347 425 390T318 433Q273 433 235 411T173 347T150 244Q150 181 175
139T243 76T340 54Q384 54 419 66T488 100L518 46Q482 22 436 5T330 -12ZM337 568L180 721L238 777L380 609L337 568Z" />
<glyph unicode="&#xe9;" d="M330 -12Q257 -12 198 18T103 105T68 244Q68 323 103 380T194 467T316 498Q386 498 435 470T511 390T538 270Q538 256 537 243T534 220H123V284H485L464 261Q464 347 425 390T318 433Q273 433 235 411T173 347T150 244Q150 181 175
139T243 76T340 54Q384 54 419 66T488 100L518 46Q482 22 436 5T330 -12ZM295 568L252 609L394 777L452 721L295 568Z" />
<glyph unicode="&#xea;" d="M330 -12Q257 -12 198 18T103 105T68 244Q68 323 103 380T194 467T316 498Q386 498 435 470T511 390T538 270Q538 256 537 243T534 220H123V284H485L464 261Q464 347 425 390T318 433Q273 433 235 411T173 347T150 244Q150 181 175
139T243 76T340 54Q384 54 419 66T488 100L518 46Q482 22 436 5T330 -12ZM196 568L161 600L275 740H357L471 600L436 568L318 681H314L196 568Z" />
<glyph unicode="&#xeb;" d="M330 -12Q257 -12 198 18T103 105T68 244Q68 323 103 380T194 467T316 498Q386 498 435 470T511 390T538 270Q538 256 537 243T534 220H123V284H485L464 261Q464 347 425 390T318 433Q273 433 235 411T173 347T150 244Q150 181 175
139T243 76T340 54Q384 54 419 66T488 100L518 46Q482 22 436 5T330 -12ZM219 588Q195 588 180 604T164 644Q164 667 179 683T219 700Q243 700 258 684T274 644Q274 621 259 605T219 588ZM413 588Q389 588 374 604T358 644Q358 667 373 683T413 700Q437 700 452
684T468 644Q468 621 453 605T413 588Z" />
<glyph unicode="&#xec;" d="M316 0V419H90V486H398V0H316ZM369 568L212 721L270 777L412 609L369 568Z" />
<glyph unicode="&#xed;" d="M316 0V419H90V486H398V0H316ZM327 568L284 609L426 777L484 721L327 568Z" />
<glyph unicode="&#xee;" d="M316 0V419H90V486H398V0H316ZM228 568L193 600L307 740H389L503 600L468 568L350 681H346L228 568Z" />
<glyph unicode="&#xef;" d="M316 0V419H90V486H398V0H316ZM251 588Q227 588 212 604T196 644Q196 667 211 683T251 700Q275 700 290 684T306 644Q306 621 291 605T251 588ZM445 588Q421 588 406 604T390 644Q390 667 405 683T445 700Q469 700 484 684T500 644Q500
621 485 605T445 588Z" />
<glyph unicode="&#xf0;" d="M298 -12Q235 -12 181 16T93 97T60 222Q60 290 89 340T170 419T288 447Q340 447 386 421T459 348L460 292Q425 342 383 362T300 383Q246 383 210 362T156 305T137 222Q137 172 159 135T218 77T300 56Q353 56 388 81T440 151T457 254Q457
342 437 407T379 521T287 607T165 678L203 730Q272 698 332 657T438 559T510 429T536 257Q536 177 507 117T425 22T298 -12ZM180 494L150 546L484 716L514 666L180 494Z" />
<glyph unicode="&#xf1;" d="M93 0V486H161L168 403H172Q210 444 254 471T355 498Q441 498 482 448T523 302V0H441V291Q441 360 415 393T329 427Q286 427 252 405T175 339V0H93ZM390 577Q364 577 345 589T309 619T279 648T247 661Q225 661 214 640T200 582L145
585Q146 625 157 655T189 703T246 721Q273 721 292 709T327 679T357 650T390 637Q412 637 423 659T436 716L491 712Q490 674 479 644T447 595T390 577Z" />
<glyph unicode="&#xf2;" d="M300 -12Q236 -12 182 18T94 105T60 242Q60 324 93 381T181 468T300 498Q364 498 418 468T506 381T540 242Q540 162 507 105T419 18T300 -12ZM300 56Q347 56 382 79T436 145T455 242Q455 298 436 340T382 406T300 430Q253 430 219 407T165
341T145 242Q145 187 164 145T218 80T300 56ZM321 568L164 721L222 777L364 609L321 568Z" />
<glyph unicode="&#xf3;" d="M300 -12Q236 -12 182 18T94 105T60 242Q60 324 93 381T181 468T300 498Q364 498 418 468T506 381T540 242Q540 162 507 105T419 18T300 -12ZM300 56Q347 56 382 79T436 145T455 242Q455 298 436 340T382 406T300 430Q253 430 219 407T165
341T145 242Q145 187 164 145T218 80T300 56ZM279 568L236 609L378 777L436 721L279 568Z" />
<glyph unicode="&#xf4;" d="M300 -12Q236 -12 182 18T94 105T60 242Q60 324 93 381T181 468T300 498Q364 498 418 468T506 381T540 242Q540 162 507 105T419 18T300 -12ZM300 56Q347 56 382 79T436 145T455 242Q455 298 436 340T382 406T300 430Q253 430 219 407T165
341T145 242Q145 187 164 145T218 80T300 56ZM180 568L145 600L259 740H341L455 600L420 568L302 681H298L180 568Z" />
<glyph unicode="&#xf5;" d="M300 -12Q236 -12 182 18T94 105T60 242Q60 324 93 381T181 468T300 498Q364 498 418 468T506 381T540 242Q540 162 507 105T419 18T300 -12ZM300 56Q347 56 382 79T436 145T455 242Q455 298 436 340T382 406T300 430Q253 430 219 407T165
341T145 242Q145 187 164 145T218 80T300 56ZM372 577Q346 577 327 589T291 619T261 648T229 661Q207 661 196 640T182 582L127 585Q128 625 139 655T171 703T228 721Q255 721 274 709T309 679T339 650T372 637Q394 637 405 659T418 716L473 712Q472 674 461 644T429
595T372 577Z" />
<glyph unicode="&#xf6;" d="M300 -12Q236 -12 182 18T94 105T60 242Q60 324 93 381T181 468T300 498Q364 498 418 468T506 381T540 242Q540 162 507 105T419 18T300 -12ZM300 56Q347 56 382 79T436 145T455 242Q455 298 436 340T382 406T300 430Q253 430 219 407T165
341T145 242Q145 187 164 145T218 80T300 56ZM203 588Q179 588 164 604T148 644Q148 667 163 683T203 700Q227 700 242 684T258 644Q258 621 243 605T203 588ZM397 588Q373 588 358 604T342 644Q342 667 357 683T397 700Q421 700 436 684T452 644Q452 621 437 605T397
588Z" />
<glyph unicode="&#xf7;" d="M300 456Q277 456 262 471T246 510Q246 533 261 548T300 563Q323 563 338 548T354 510Q354 486 339 471T300 456ZM300 96Q277 96 262 111T246 150Q246 173 261 188T300 203Q323 203 338 188T354 150Q354 126 339 111T300 96ZM85 299V361H515V299H85Z"
/>
<glyph unicode="&#xf8;" d="M300 -12Q236 -12 182 18T94 105T60 242Q60 324 93 381T181 468T300 498Q364 498 418 468T506 381T540 242Q540 162 507 105T419 18T300 -12ZM300 54Q347 54 381 78T435 144T455 242Q455 298 436 341T382 408T300 432Q254 432 219 408T165
341T145 242Q145 187 164 145T219 78T300 54ZM108 -30L62 12L492 516L538 474L108 -30Z" />
<glyph unicode="&#xf9;" d="M246 -12Q159 -12 118 38T77 184V486H160V195Q160 126 185 93T272 59Q314 59 348 80T423 149V486H505V0H438L431 85H427Q390 43 346 16T246 -12ZM572 568L415 721L473 777L615 609L572 568Z" />
<glyph unicode="&#xfa;" d="M246 -12Q159 -12 118 38T77 184V486H160V195Q160 126 185 93T272 59Q314 59 348 80T423 149V486H505V0H438L431 85H427Q390 43 346 16T246 -12ZM530 568L487 609L629 777L687 721L530 568Z" />
<glyph unicode="&#xfb;" d="M246 -12Q159 -12 118 38T77 184V486H160V195Q160 126 185 93T272 59Q314 59 348 80T423 149V486H505V0H438L431 85H427Q390 43 346 16T246 -12ZM431 568L396 600L510 740H592L706 600L671 568L553 681H549L431 568Z" />
<glyph unicode="&#xfc;" d="M246 -12Q159 -12 118 38T77 184V486H160V195Q160 126 185 93T272 59Q314 59 348 80T423 149V486H505V0H438L431 85H427Q390 43 346 16T246 -12ZM454 588Q430 588 415 604T399 644Q399 667 414 683T454 700Q478 700 493 684T509 644Q509
621 494 605T454 588ZM648 588Q624 588 609 604T593 644Q593 667 608 683T648 700Q672 700 687 684T703 644Q703 621 688 605T648 588Z" />
<glyph unicode="&#xfd;" d="M131 -209Q115 -209 98 -206T67 -199L84 -134Q94 -137 105 -139T128 -141Q179 -141 211 -112T261 -37L276 -1L49 486H132L251 217Q265 185 280 149T311 76H315Q328 111 341 147T367 217L473 486H551L337 -40Q319 -88 292 -126T226 -187T131
-209ZM283 568L240 609L382 777L440 721L283 568Z" />
<glyph unicode="&#xfe;" d="M93 -205V712H175V511L172 424H175Q209 458 251 478T337 498Q403 498 448 468T516 382T540 250Q540 168 509 109T428 19T319 -12Q283 -12 245 5T175 51H172L175 -41V-205H93ZM305 57Q347 57 381 80T435 146T455 250Q455 303 441 343T397
406T317 429Q285 429 249 412T175 356V114Q209 83 244 70T305 57Z" />
<glyph unicode="&#xff;" d="M131 -209Q115 -209 98 -206T67 -199L84 -134Q94 -137 105 -139T128 -141Q179 -141 211 -112T261 -37L276 -1L49 486H132L251 217Q265 185 280 149T311 76H315Q328 111 341 147T367 217L473 486H551L337 -40Q319 -88 292 -126T226 -187T131
-209ZM207 588Q183 588 168 604T152 644Q152 667 167 683T207 700Q231 700 246 684T262 644Q262 621 247 605T207 588ZM401 588Q377 588 362 604T346 644Q346 667 361 683T401 700Q425 700 440 684T456 644Q456 621 441 605T401 588Z" />
<glyph unicode="&#x2013;" d="M80 216V288H520V216H80Z" />
<glyph unicode="&#x2014;" d="M0 216V288H600V216H0Z" />
<glyph unicode="&#x2018;" d="M299 350Q260 350 235 382T209 470Q209 546 247 605T353 699L380 651Q330 622 303 579T276 478L295 400L240 466Q253 480 269 489T303 499Q334 499 353 479T373 427Q373 393 353 372T299 350Z" />
<glyph unicode="&#x2019;" d="M245 350L217 398Q267 427 294 470T322 571L302 649L357 582Q344 568 328 559T295 550Q264 550 244 570T224 621Q224 656 245 677T298 699Q337 699 362 667T388 578Q388 503 350 444T245 350Z" />
<glyph unicode="&#x201a;" d="M245 -226L217 -178Q267 -149 294 -106T322 -5L302 73L357 6Q344 -8 328 -17T295 -26Q264 -26 244 -6T224 45Q224 80 245 101T298 123Q337 123 362 91T388 2Q388 -73 350 -132T245 -226Z" />
<glyph unicode="&#x201c;" d="M440 350Q401 350 376 382T350 470Q350 546 388 605T494 699L521 651Q471 622 444 579T417 478L436 400L381 466Q394 480 410 489T444 499Q475 499 494 479T514 427Q514 393 494 372T440 350ZM414 350Q375 350 350 382T324 470Q324
546 362 605T468 699L495 651Q445 622 418 579T391 478L410 400L355 466Q368 480 384 489T418 499Q449 499 468 479T488 427Q488 393 468 372T414 350Z" />
<glyph unicode="&#x201d;" d="M386 350L358 398Q408 427 435 470T463 571L443 649L498 582Q485 568 469 559T436 550Q405 550 385 570T365 621Q365 656 386 677T439 699Q478 699 503 667T529 578Q529 503 491 444T386 350ZM360 350L332 398Q382 427 409 470T437
571L417 649L472 582Q459 568 443 559T410 550Q379 550 359 570T339 621Q339 656 360 677T413 699Q452 699 477 667T503 578Q503 503 465 444T360 350Z" />
<glyph unicode="&#x201e;" d="M130 -226L102 -178Q152 -149 179 -106T207 -5L187 73L242 6Q229 -8 213 -17T180 -26Q149 -26 129 -6T109 45Q109 80 130 101T183 123Q222 123 247 91T273 2Q273 -73 235 -132T130 -226ZM360 -226L332 -178Q382 -149 409 -106T437
-5L417 73L472 6Q459 -8 443 -17T410 -26Q379 -26 359 -6T339 45Q339 80 360 101T413 123Q452 123 477 91T503 2Q503 -73 465 -132T360 -226Z" />
<glyph unicode="&#x2022;" d="M300 115Q260 115 227 133T172 185T151 262Q151 306 172 339T226 390T300 409Q340 409 373 391T428 339T449 262Q449 218 428 185T374 134T300 115Z" />
<glyph unicode="&#x2039;" d="M350 52L197 212V292L350 452L389 417L262 252L389 86L350 52Z" />
<glyph unicode="&#x203a;" d="M250 52L211 86L338 252L211 417L250 452L403 292V212L250 52Z" />
</font>
</defs>
</svg>
